Szerző Téma: Tabu: Rendhagyó szex /Taboo: Sexpectations/ 2016 X264 HUN  (Megtekintve 24 alkalommal)

Leírás: Mkv[1.00Gb]Data prémium,Bitster

0 Felhasználó és 1 vendég van a témában

Nem elérhető Speed

  • Nem Vagyok Tökéletes' És Ezen Nem Sokat Dolgoztam!
  • Red Speeder One
  • Road Spirit
  • *
  • Hozzászólások: 10696
  • Megköszönte: 3998 Alkalommal
  • Alapitó
    • live-speed
Tabu: Rendhagyó szex /Taboo: Sexpectations/ 2016 X264 HUN
« Dátum: 2017. Január 03. - 12:15:07 »
Tabu: Rendhagyó szex /Taboo: Sexpectations/ 2016 X264 HUN


szines, magyarul beszélö, dokumentumfilm

Tabu: Rendhagyó szex
(Taboo: Sexpectations)
Megjelenés éve:   2016
Rendező:   Adrian Maher, Nick Long
Ország:   USA
Hossz:   45 perc

A filmben olyan párokkal ismerkedünk meg, akiknek a szexuális élete távol van a megszokottól - nagyon távol. Valmir Leal De Assis nyolc gyilkosság miatt 30 éves büntetését tölti egy brazil börtönben - a felesége pedig havonta kétszer jár be hozzá, hogy együtt lehessenek. David és Lisa boldog házasságban élnek, egy kis bökkenővel: David egy férfivel is szexuális viszonyt ápol, felesége beleegyezésével. Első ránézésre John és Judy szintén átlagos párnak tűnnek, ám ők is egy titkot őriznek: olykor-olykor mindketten le-lefekszenek idegenekkel.





Format : Matroska
Format version : Version 4 / Version 2
File size : 1 003 MiB
Duration : 43 min 46 s
Overall bit rate : 3 202 kb/s
Video
ID : 1
Format : AVC
Format/Info : Advanced Video Codec
Format profile : High@L4.1
Format settings, CABAC : Yes
Format settings, ReFrames : 16 frames
Codec ID : V_MPEG4/ISO/AVC
Duration : 43 min 46 s
Bit rate : 2 976 kb/s
Width : 720 pixels
Height : 400 pixels
Display aspect ratio : 16:9
Frame rate mode : Constant
Frame rate : 25.000 FPS
Color space : YUV
Chroma subsampling : 4:2:0
Bit depth : 8 bits
Scan type : Progressive
Bits/(Pixel*Frame) : 0.413
Stream size : 913 MiB (91%)
Audio
ID : 2
Format : AC-3
Format/Info : Audio Coding 3
Mode extension : CM (complete main)
Format settings, Endianness : Big
Codec ID : A_AC3
Duration : 43 min 46 s
Bit rate mode : Constant
Bit rate : 224 kb/s
Channel(s) : 2 channels
Channel positions : Front: L R
Sampling rate : 48.0 kHz
Frame rate : 31.250 FPS (1536 spf)
Bit depth : 16 bits
Compression mode : Lossy
Stream size : 70.1 MiB (7%)
Language : Hungarian
Méret:1,002.67 MB
 :ls le1:
Kód:
Only registered users can see contents. Kérjük kattintson ide Regisztrálj Vagy Jelenkez Be.
GY.I.Klive-Speed SzabályzatSegítség a Letöltéshez
Moderátorokat keresünk! Ha van minden nap egy kis időd és kedved akkor jelentkezz! De kérünk benneteket csak akkor ha tényleg tudtok időt szánni a fórumra,és előny ha aktív vagy!