* Ls Hírek

Kedves felhasználók!

A szavazás ideje alatt a prémium link használatát elfogadjuk,lehet 10Gb-nál nagyobb fálj méretnél csak prémium link hozzáférést adni,és témát nyitni!

Továbbá az Ebook részleg is kapott külön szabályzatot,és a tiltott anyagok részt betartani!!

Köszönettel Ls staff :)

Szerző Téma: Rita.Játékai.2002  (Megtekintve 98 alkalommal)

Leírás: XXX.DVDRip-XVID-HUNDUB

0 Felhasználó és 1 vendég van a témában

Nem elérhető bubus66

  • Speed Smasszer
  • Totalfuel
  • *
  • Hozzászólások: 2795
  • Megköszönte: 475 Alkalommal
    • Android alkalmazások és ROM-ok letöltése Android alkalmazások, játékok kérése
Rita.Játékai.2002
« Dátum: 2017. Augusztus 12. - 15:59:32 »
Rita.Játékai.2002.XXX.DVDRip.x264.MP4.Hungarian

Spoiler for Elrejt:


Unatkozik a csodaszép milliomos csemete, ezért tengernyi idejét és pénzét arra pazarolja, hogy a villájában egy különleges szex szolgáltatást nyújtó vállalkozást üzemeltet. Ötletekből nincs hiány, és a befektetett munkából hamarosan csak úgy dől a lé.
General
Complete name              : Rita.Jatekai.2002\x264_Rita.Jatekai.2002.XXX-ssj4S.mp4
Format                  : MPEG-4
Format profile              : Base Media / Version 2
Codec ID                 : mp42
File size                : 1.08 GiB
Duration                 : 1h 30mn
Overall bit rate mode          : Variable
Overall bit rate             : 1 709 Kbps
Movie name                : SAJA_T_FILM.Title32
Album                  : SAJA_T_FILM
Encoded date               : UTC 2014-10-20 18:10:15
Tagged date               : UTC 2014-10-20 20:01:09
Writing application           : DVDFab 9.1.6.8
covr                   : Unknown kind of value!

Video
ID                    : 1
Format                  : AVC
Format/Info               : Advanced Video Codec
Format profile              : Main@L3.0
Format settings, CABAC          : Yes
Format settings, ReFrames        : 1 frame
Format settings, GOP           : N=1
Codec ID                 : avc1
Codec ID/Info              : Advanced Video Coding
Duration                 : 1h 30mn
Bit rate                 : 1 544 Kbps
Width                  : 692 pixels
Height                  : 532 pixels
Display aspect ratio           : 4:3
Frame rate mode             : Constant
Frame rate                : 25.000 fps
Color space               : YUV
Chroma subsampling            : 4:2:0
Bit depth                : 8 bits
Scan type                : Progressive
Bits/(Pixel*Frame)            : 0.168
Stream size               : 995 MiB (90%)
Writing library             : x264 core 142
Encoded date               : UTC 2014-10-20 18:10:15
Tagged date               : UTC 2014-10-20 20:01:08
Color primaries             : BT.601 NTSC
Transfer characteristics         : BT.709
Matrix coefficients           : BT.601

Audio
ID                    : 2
Format                  : AAC
Format/Info               : Advanced Audio Codec
Format profile              : LC
Codec ID                 : 40
Duration                 : 1h 30mn
Bit rate mode              : Variable
Bit rate                 : 160 Kbps
Maximum bit rate             : 162 Kbps
Channel(s)                : 2 channels
Channel positions            : Front: L R
Sampling rate              : 48.0 KHz
Compression mode             : Lossy
Stream size               : 103 MiB (9%)
Language                 : Hungarian
Encoded date               : UTC 2014-10-20 18:10:15
Tagged date               : UTC 2014-10-20 20:00:29

Menu
ID                    : 3
Codec ID                 : text
Duration                 : 1h 30mn
Encoded date               : UTC 2014-10-20 18:10:15
Tagged date               : UTC 2014-10-20 20:01:09
Bit rate mode              : CBR


Kód:
Only registered users can see contents. Kérjük kattintson ide Regisztrálj Vagy Jelenkez Be.

Kód:
Only registered users can see contents. Kérjük kattintson ide Regisztrálj Vagy Jelenkez Be.
"ubi dolor ibi vigiles".(Ahol a fájdalom ott a segítség) Szent Flórián.

A Tűzoltó nem azért rohan be a házba mert rettenthetetlen, hanem mert elhivatottsága erősebb a félelemnél.

A Tűzoltók nem hősök, mert a hősök mind hallottak. A Tűzoltó olyan ember, mint Te, csak képes oda adni az életét a Te életedért
Felhasználók akik megköszönték a hozzászólást: doresz2