* Ls Hírek

Kedves felhasználók!

A szavazás ideje alatt a prémium link használatát elfogadjuk,lehet 10Gb-nál nagyobb fálj méretnél csak prémium link hozzáférést adni,és témát nyitni!

Továbbá az Ebook részleg is kapott külön szabályzatot,és a tiltott anyagok részt betartani!!

Köszönettel Ls staff :)

Szerző Téma: Lord - 40 éves jubileumi koncert  (Megtekintve 571 alkalommal)

Leírás: Dvd[7.39Gb]Data Prémium,Bitster

0 Felhasználó és 1 vendég van a témában

Nem elérhető Speed

  • Nem Vagyok Tökéletes' És Ezen Nem Sokat Dolgoztam!
  • Red Speeder One
  • Road Spirit
  • *
  • Hozzászólások: 12476
  • Megköszönte: 7684 Alkalommal
  • Alapitó
    • live-speed
Lord - 40 éves jubileumi koncert
« Dátum: 2015. április 17. - 08:58:05 »
Lord - 40 éves jubileumi koncert


Előadó: Lord
Album címe: 40 éves jubileumi koncert
Megjelenés éve: 2012

· a zenekar 40 éves jubileumi koncertjének TELJES anyaga DVD-n
· a legjobb és legismertebb Lord himnuszok fantasztikus élő hangulattal és hangzással!
· 28 dal, Lord dal a DVD-n!
· bónusz a Sipőcz Rock Band (ős-Lord) teljes koncertje 12 dallal, az összes alapvető 1972 és 1982 közötti Lord nótával
· bónusz képgaléria

Dalsorrend:
1. Intro
2. Nem Kell
3. Síri csend
4. Álmodom
5. Ragadozók
6. Itthon vagy otthon
7. Ki mondja meg
8. Az utca kövén
9. Más az élet
10. Próbáld meg újra
11. Napvilág
12. Képzeld el
13. Nincs bocsánat
14. Egyedül
15. Érezzél engem
16. Neked soha nem elég
17. Ördög és angyal
18. Engem ne várjatok
19. Virágdal
20. Fázom a szélben
21. Tombolhat szél
22. Örökké
23. Hazám
24. Szóljon a rock
25. Vándor
26. Kisfiú
27. Szállj szabadon
28. Kifutok a világból
29. Outro

Kód:
Only registered users can see contents. Kérjük kattintson ide Regisztrálj Vagy Jelenkez Be.


General
Complete name : VIDEO_TS\VTS_01_1.VOB
Format : MPEG-PS
File size : 1 000 MiB
Duration : 23mn 25s
Overall bit rate mode : Variable
Overall bit rate : 5 970 Kbps

Video
ID : 224 (0xE0)
Format : MPEG Video
Format version : Version 2
Format profile : Main@Main
Format settings, BVOP : Yes
Format settings, Matrix : Default
Format settings, GOP : M=3, N=12
Duration : 23mn 25s
Bit rate mode : Variable
Bit rate : 5 147 Kbps
Maximum bit rate : 8 000 Kbps
Width : 720 pixels
Height : 576 pixels
Display aspect ratio : 16:9
Frame rate : 25.000 fps
Standard : PAL
Color space : YUV
Chroma subsampling : 4:2:0
Bit depth : 8 bits
Scan type : Progressive
Compression mode : Lossy
Bits/(Pixel*Frame) : 0.496
Stream size : 862 MiB (86%)

Audio #1
ID : 189 (0xBD)-128 (0x80)
Format : AC-3
Format/Info : Audio Coding 3
Mode extension : CM (complete main)
Format settings, Endianness : Big
Muxing mode : DVD-Video
Duration : 23mn 25s
Bit rate mode : Constant
Bit rate : 256 Kbps
Channel(s) : 2 channels
Channel positions : Front: L R
Sampling rate : 48.0 KHz
Bit depth : 16 bits
Compression mode : Lossy
Delay relative to video : -80ms
Stream size : 42.9 MiB (4%)

Audio #2
ID : 189 (0xBD)-129 (0x81)
Format : AC-3
Format/Info : Audio Coding 3
Mode extension : CM (complete main)
Format settings, Endianness : Big
Muxing mode : DVD-Video
Duration : 23mn 25s
Bit rate mode : Constant
Bit rate : 448 Kbps
Channel(s) : 6 channels
Channel positions : Front: L C R, Side: L R, LFE
Sampling rate : 48.0 KHz
Bit depth : 16 bits
Compression mode : Lossy
Delay relative to video : -80ms
Stream size : 75.1 MiB (8%)

Méret:7.39 GB
 :ls le:
Kód:
Only registered users can see contents. Kérjük kattintson ide Regisztrálj Vagy Jelenkez Be.
« Utoljára szerkesztve: 2017. Június 22. - 14:37:38 írta Speed »
GY.I.Klive-Speed SzabályzatSegítség a Letöltéshez
Moderátorokat keresünk! Ha van minden nap egy kis időd és kedved akkor jelentkezz! De kérünk benneteket csak akkor ha tényleg tudtok időt szánni a fórumra,és előny ha aktív vagy!
Felhasználók akik megköszönték a hozzászólást: sanyi622

Nem elérhető Speed

  • Nem Vagyok Tökéletes' És Ezen Nem Sokat Dolgoztam!
  • Red Speeder One
  • Road Spirit
  • *
  • Hozzászólások: 12476
  • Megköszönte: 7684 Alkalommal
  • Alapitó
    • live-speed
Re:Lord - 40 éves jubileumi koncert
« Válasz #1 Dátum: 2017. Június 22. - 14:37:57 »
Linkek javítva :)
GY.I.Klive-Speed SzabályzatSegítség a Letöltéshez
Moderátorokat keresünk! Ha van minden nap egy kis időd és kedved akkor jelentkezz! De kérünk benneteket csak akkor ha tényleg tudtok időt szánni a fórumra,és előny ha aktív vagy!